Gearheads (2016) HDRip 720p English x264 XviD AC3 EVO Download

Download Here                   Watch Now

Gearheads (2016) HDRip 720p English x264 XviD AC3 EVO Download

Gearheads (2016)

A mysterious mentor helps a conflicted teen overcome his fear of driving, and win the race of his life at the local dirt track in Smalltown, USA.

Video
ID : 0
Format : MPEG-4 Visual
Format profile : Advanced [email protected]
Format settings, BVOP : 2
Format settings, QPel : No
Format settings, GMC : No warppoints
Format settings, Matrix : Default (H.263)
Muxing mode : Packed bitstream
Codec ID : XVID
Codec ID/Hint : XviD
Duration : 1h 22mn
Bit rate : 2 179 Kbps
Width : 720 pixels
Height : 400 pixels
Display aspect ratio : 16:9
Frame rate : 23.976 (23976/1000) fps
Color space : YUV
Chroma subsampling : 4:2:0
Bit depth : 8 bits
Scan type : Progressive
Compression mode : Lossy
Bits/(Pixel*Frame) : 0.316
Stream size : 1.25 GiB (92%)
Writing library : XviD 66

Audio
ID : 1
Format : AC-3
Format/Info : Audio Coding 3
Mode extension : CM (complete main)
Format settings, Endianness : Big
Codec ID : 2000
Duration : 1h 22mn
Bit rate mode : Constant
Bit rate : 192 Kbps
Channel(s) : 2 channels
Channel positions : Front: L R
Sampling rate : 48.0 KHz
Frame rate : 31.250 fps (1536 spf)
Compression mode : Lossy
Stream size : 113 MiB (8%)
Alignment : Aligned on interleaves
Interleave, duration : 64 ms (1.53 video frames)
Interleave, preload duration : 192 ms
Title : gearheads

Screenshots:
image
image

Download Links

DOWNLOAD TORRENT

Screenshot | IMDB
 

Gearheads 2016 HDRip XviD AC3-EVO
1.37 GB
Published on: May 25, 2016 @ 20:13

UPLOADED | RapidGaToR | FILEFACTORY | UploadRocket | Nitroflare