The.Conjuring 2 2016 CAMRip ENGLISH (Clear audio) x264 Download or watch online

Download Here                   Watch Now

The.Conjuring 2 2016 CAMRip ENGLISH (Clear audio) x264 Download or watch online

Conjuring 2 english

File size : 629 MiB
Duration : 2h 9mn
Overall bit rate : 680 Kbps
Writing application : Lavf56.40.101

image

Video
ID : 1
Format : AVC
Format/Info : Advanced Video Codec
Format profile : [email protected]
Format settings, CABAC : Yes
Format settings, ReFrames : 4 frames
Codec ID : avc1
Codec ID/Info : Advanced Video Coding
Duration : 2h 9mn
Bit rate : 547 Kbps
Width : 720 pixels
Height : 480 pixels
Display aspect ratio : 3:2
Frame rate mode : Constant
Frame rate : 25.000 fps
Color space : YUV
Chroma subsampling : 4:2:0
Bit depth : 8 bits
Scan type : Progressive
Bits/(Pixel*Frame) : 0.063
Stream size : 506 MiB (80%)

Audio
ID : 2
Format : AAC
Format/Info : Advanced Audio Codec
Format profile : LC
Codec ID : 40
Duration : 2h 9mn
Bit rate mode : Constant
Bit rate : 128 Kbps
Channel(s) : 2 channels
Channel positions : Front: L R
Sampling rate : 48.0 KHz
Frame rate : 46.875 fps (1024 spf)
Compression mode : Lossy
Stream size : 118 MiB (19%)
Default : Yes
Alternate group : 1
[the_ad id=”4740″]
Screens:

vlcsnap-2016-06-12-21h49m38s443rLf9N (Small) vlcsnap-2016-06-12-22h56m47s470 (Small) vlcsnap-2016-06-12-21h49m27s035Hkx4n (Small)

Download links

DOWNLOAD TORRENT

Direct Download

http://bdupload.org/6ge0qis7cduu

http://www.indishare.me/3cx53d6xfh8p

http://uptobox.com/wiidtvfjj96c

[the_ad id=”4740″]

Recent search terms:

Tags: ,